Build 5166: .ts -> .mkv not working

Bug report and feature request
Post Reply
boardersparadise
Modest
Modest
Posts: 102
Joined: Thu Oct 08, 2009 3:09 pm

Build 5166: .ts -> .mkv not working

Post by boardersparadise » Sat Jun 25, 2011 8:54 am

trying to convert .ts to .mkv
video: stream copy
audio: stream copy

--> error: "no file is outputed".

Code: Select all

MediaCoder Version 0.8.1 build 5166 (built on Jun 12 2011, 12:37:31)

MediaCoder is a freeware. You can freely redistribute it under its redistributio
n terms and conditions.
(C)2005-2010 Stanley Huang <stanleyhuangyc@gmail.com>. All Rights Reserved.

Intel(R) Pentium(R) M processor 1.60GHz (1044Mhz)
CPU Number: 1  CPU Cores: 1
CPU Cache: L1 32KB L2 2048KB L3 -1KB
CPU SIMD: MMX SSE SSE2
North Bridge: 0x80862590  South Bridge: 0x80862641
Cannot load bitmap font: Arial
D:\HDTV-Testprogramm vom WDR.ts to be muxed into container as type 2.
D:\HDTV-Testprogramm vom WDR.ts to be muxed into container as type 1.

# .\codecs\ffmpeg.exe -r 50/1 -i "D:\HDTV-Testprogramm vom WDR.ts" -vcodec copy
-i "D:\HDTV-Testprogramm vom WDR.ts" -acodec copy -aspect 1.77778 -y "D:\HDTV-Te
stprogramm vom WDR.mkv"

ffmpeg version git-N-30698-g39dbe9b, Copyright (c) 2000-2011 the FFmpeg develope
rs
  built on Jun 10 2011 22:11:19 with gcc 4.5.3
  configuration: --disable-static --enable-shared --enable-gpl --enable-version3
 --enable-memalign-hack --enable-runtime-cpudetect --enable-avisynth --enable-bz
lib --enable-frei0r --enable-libopencore-amrnb --enable-libopencore-amrwb --enab
le-libfreetype --enable-libgsm --enable-libmp3lame --enable-libopenjpeg --enable
-librtmp --enable-libschroedinger --enable-libspeex --enable-libtheora --enable-
libvorbis --enable-libvpx --enable-libx264 --enable-libxavs --enable-libxvid --e
nable-zlib --disable-outdev=sdl --pkg-config=pkg-config
  libavutil    51.  8. 0 / 51.  8. 0
  libavcodec   53.  7. 0 / 53.  7. 0
  libavformat  53.  3. 0 / 53.  3. 0
  libavdevice  53.  1. 1 / 53.  1. 1
  libavfilter   2. 15. 0 /  2. 15. 0
  libswscale    0. 14. 1 /  0. 14. 1
  libpostproc  51.  2. 0 / 51.  2. 0
[h264 @ 00A729A0] non-existing SPS 4 referenced in buffering period
[h264 @ 00A729A0] non-existing PPS referenced
[h264 @ 00A729A0] non-existing SPS 4 referenced in buffering period
[h264 @ 00A729A0] non-existing PPS 0 referenced
[h264 @ 00A729A0] decode_slice_header error
[h264 @ 00A729A0] no frame!
[h264 @ 00A729A0] non-existing SPS 5 referenced in buffering period
[h264 @ 00A729A0] non-existing PPS referenced
[h264 @ 00A729A0] non-existing SPS 5 referenced in buffering period
[h264 @ 00A729A0] non-existing PPS 0 referenced
[h264 @ 00A729A0] decode_slice_header error
[h264 @ 00A729A0] no frame!
[h264 @ 00A729A0] non-existing SPS 5 referenced in buffering period
[h264 @ 00A729A0] non-existing PPS referenced
[h264 @ 00A729A0] non-existing SPS 5 referenced in buffering period
[h264 @ 00A729A0] non-existing PPS 0 referenced
[h264 @ 00A729A0] decode_slice_header error
[h264 @ 00A729A0] no frame!
[h264 @ 00A729A0] non-existing SPS 5 referenced in buffering period
[h264 @ 00A729A0] non-existing PPS referenced
[h264 @ 00A729A0] non-existing SPS 5 referenced in buffering period
[h264 @ 00A729A0] non-existing PPS 0 referenced
[h264 @ 00A729A0] decode_slice_header error
[h264 @ 00A729A0] no frame!
[h264 @ 00A729A0] non-existing SPS 5 referenced in buffering period
[h264 @ 00A729A0] non-existing PPS referenced
[h264 @ 00A729A0] non-existing SPS 5 referenced in buffering period
[h264 @ 00A729A0] non-existing PPS 0 referenced
[h264 @ 00A729A0] decode_slice_header error
[h264 @ 00A729A0] no frame!
[h264 @ 00A729A0] non-existing SPS 6 referenced in buffering period
[h264 @ 00A729A0] non-existing PPS referenced
[h264 @ 00A729A0] non-existing SPS 6 referenced in buffering period
[h264 @ 00A729A0] non-existing PPS 0 referenced
[h264 @ 00A729A0] decode_slice_header error
[h264 @ 00A729A0] no frame!
[h264 @ 00A729A0] non-existing SPS 6 referenced in buffering period
[h264 @ 00A729A0] non-existing PPS referenced
[h264 @ 00A729A0] non-existing SPS 6 referenced in buffering period
[h264 @ 00A729A0] non-existing PPS 0 referenced
[h264 @ 00A729A0] decode_slice_header error
[h264 @ 00A729A0] no frame!
[h264 @ 00A729A0] non-existing SPS 6 referenced in buffering period
[h264 @ 00A729A0] non-existing PPS referenced
[h264 @ 00A729A0] non-existing SPS 6 referenced in buffering period
[h264 @ 00A729A0] non-existing PPS 0 referenced
[h264 @ 00A729A0] decode_slice_header error
[h264 @ 00A729A0] no frame!
[h264 @ 00A729A0] non-existing SPS 6 referenced in buffering period
[h264 @ 00A729A0] non-existing PPS referenced
[h264 @ 00A729A0] non-existing SPS 6 referenced in buffering period
[h264 @ 00A729A0] non-existing PPS 0 referenced
[h264 @ 00A729A0] decode_slice_header error
[h264 @ 00A729A0] no frame!
[h264 @ 00A729A0] mmco: unref short failure
    Last message repeated 1 times
[NULL @ 00A70B40] start time is not set in av_estimate_timings_from_pts
[NULL @ 00A74820] start time is not set in av_estimate_timings_from_pts
[mpegts @ 003DB440] max resync size reached, could not find sync byte
    Last message repeated 1 times
Input #0, mpegts, from 'D:\HDTV-Testprogramm vom WDR.ts':
  Duration: 00:00:54.69, start: 88935.019767, bitrate: 8377 kb/s
  Program 28306
  Program 28307
  Program 28308
  Program 28309
  Program 28310
  Program 28311
  Program 28385
  Program 28395
  Program 28396
    Stream #0.0[0x642](deu): Audio: mp2, 48000 Hz, stereo, s16, 256 kb/s
    Stream #0.1[0x646](deu): Audio: ac3, 48000 Hz, stereo, s16, 256 kb/s
    Stream #0.2[0x644](ger): Subtitle: [6][0][0][0] / 0x0006
    Stream #0.3[0x10e]: Data: [5][0][0][0] / 0x0005
    Stream #0.4[0x641]: Video: h264 (High), yuv420p, 1280x720 [PAR 1:1 DAR 16:9]
, 51.65 fps, 50 tbr, 90k tbn, 100 tbc
    Stream #0.5[0x87b]: Data: [11][0][0][0] / 0x000B
  Program 28397
[h264 @ 01209FC0] non-existing SPS 4 referenced in buffering period
[h264 @ 01209FC0] non-existing PPS referenced
[h264 @ 01209FC0] non-existing SPS 4 referenced in buffering period
[h264 @ 01209FC0] non-existing PPS 0 referenced
[h264 @ 01209FC0] decode_slice_header error
[h264 @ 01209FC0] no frame!
[h264 @ 01209FC0] non-existing SPS 5 referenced in buffering period
[h264 @ 01209FC0] non-existing PPS referenced
[h264 @ 01209FC0] non-existing SPS 5 referenced in buffering period
[h264 @ 01209FC0] non-existing PPS 0 referenced
[h264 @ 01209FC0] decode_slice_header error
[h264 @ 01209FC0] no frame!
[h264 @ 01209FC0] non-existing SPS 5 referenced in buffering period
[h264 @ 01209FC0] non-existing PPS referenced
[h264 @ 01209FC0] non-existing SPS 5 referenced in buffering period
[h264 @ 01209FC0] non-existing PPS 0 referenced
[h264 @ 01209FC0] decode_slice_header error
[h264 @ 01209FC0] no frame!
[h264 @ 01209FC0] non-existing SPS 5 referenced in buffering period
[h264 @ 01209FC0] non-existing PPS referenced
[h264 @ 01209FC0] non-existing SPS 5 referenced in buffering period
[h264 @ 01209FC0] non-existing PPS 0 referenced
[h264 @ 01209FC0] decode_slice_header error
[h264 @ 01209FC0] no frame!
[h264 @ 01209FC0] non-existing SPS 5 referenced in buffering period
[h264 @ 01209FC0] non-existing PPS referenced
[h264 @ 01209FC0] non-existing SPS 5 referenced in buffering period
[h264 @ 01209FC0] non-existing PPS 0 referenced
[h264 @ 01209FC0] decode_slice_header error
[h264 @ 01209FC0] no frame!
[h264 @ 01209FC0] non-existing SPS 6 referenced in buffering period
[h264 @ 01209FC0] non-existing PPS referenced
[h264 @ 01209FC0] non-existing SPS 6 referenced in buffering period
[h264 @ 01209FC0] non-existing PPS 0 referenced
[h264 @ 01209FC0] decode_slice_header error
[h264 @ 01209FC0] no frame!
[h264 @ 01209FC0] non-existing SPS 6 referenced in buffering period
[h264 @ 01209FC0] non-existing PPS referenced
[h264 @ 01209FC0] non-existing SPS 6 referenced in buffering period
[h264 @ 01209FC0] non-existing PPS 0 referenced
[h264 @ 01209FC0] decode_slice_header error
[h264 @ 01209FC0] no frame!
[h264 @ 01209FC0] non-existing SPS 6 referenced in buffering period
[h264 @ 01209FC0] non-existing PPS referenced
[h264 @ 01209FC0] non-existing SPS 6 referenced in buffering period
[h264 @ 01209FC0] non-existing PPS 0 referenced
[h264 @ 01209FC0] decode_slice_header error
[h264 @ 01209FC0] no frame!
[h264 @ 01209FC0] non-existing SPS 6 referenced in buffering period
[h264 @ 01209FC0] non-existing PPS referenced
[h264 @ 01209FC0] non-existing SPS 6 referenced in buffering period
[h264 @ 01209FC0] non-existing PPS 0 referenced
[h264 @ 01209FC0] decode_slice_header error
[h264 @ 01209FC0] no frame!
[h264 @ 01209FC0] mmco: unref short failure
    Last message repeated 1 times
[NULL @ 01426020] start time is not set in av_estimate_timings_from_pts
[NULL @ 0122B760] start time is not set in av_estimate_timings_from_pts
[mpegts @ 01204020] max resync size reached, could not find sync byte
    Last message repeated 1 times
Input #1, mpegts, from 'D:\HDTV-Testprogramm vom WDR.ts':
  Duration: 00:00:54.69, start: 88935.019767, bitrate: 8377 kb/s
  Program 28306
  Program 28307
  Program 28308
  Program 28309
  Program 28310
  Program 28311
  Program 28385
  Program 28395
  Program 28396
    Stream #1.0[0x642](deu): Audio: mp2, 48000 Hz, stereo, s16, 256 kb/s
    Stream #1.1[0x646](deu): Audio: ac3, 48000 Hz, stereo, s16, 256 kb/s
    Stream #1.2[0x644](ger): Subtitle: [6][0][0][0] / 0x0006
    Stream #1.3[0x10e]: Data: [5][0][0][0] / 0x0005
    Stream #1.4[0x641]: Video: h264 (High), yuv420p, 1280x720 [PAR 1:1 DAR 16:9]
, 51.65 fps, 50 tbr, 90k tbn, 100 tbc
    Stream #1.5[0x87b]: Data: [11][0][0][0] / 0x000B
  Program 28397
Output #0, matroska, to 'D:\HDTV-Testprogramm vom WDR.mkv':
    Stream #0.0: Video: libx264, yuv420p, 1280x720 [PAR 1:1 DAR 16:9], q=2-31, 9
0k tbn, 50 tbc
    Stream #0.1(deu): Audio: mp2, 48000 Hz, stereo, 256 kb/s
    Stream #0.2(ger): Subtitle: [0][0][0][0] / 0x0000, 64 kb/s
Stream mapping:
  Stream #0.4 -> #0.0
  Stream #0.0 -> #0.1
  Stream #0.2 -> #0.2
Encoder (codec id 94210) not found for output stream #0.2
It seems there is a text (subtitle) stream in the .ts file which MediaCoder does not recognize.
What can be done?

kawamoto76
Advanced
Advanced
Posts: 475
Joined: Sun Dec 14, 2008 4:52 pm
Location: JAPAN

Re: Build 5166: .ts -> .mkv not working

Post by kawamoto76 » Tue Jun 28, 2011 1:41 pm

When willing to change container only, I have never succeeded with copying both video and audio simultaneously with any versions of mediacoder.
I think it is necessary to encode at least one, video or audio, to re-construct A/V sync and etc..
Akira Kawamoto

Post Reply