CONVERSION HELP

This area is for more experienced users, discussing about more complicated issues.

Moderator: HuggiL

bill99201
Beginner
Beginner
Posts: 2
Joined: Sun Feb 28, 2016 4:20 am

CONVERSION HELP

Postby bill99201 » Sun Mar 06, 2016 8:46 pm

HI GUYS AND GALS, TRYING TO MAKE A 720P MHD FILE, WASN'T THE BEST RESULT, ANY IDEAS. HERES INFO

Zulu Dawn (1979 BEFORE

F:\movies 1 unsupported\Zulu Dawn (1979.avi
General
Complete name : F:\movies 1 unsupported\Zulu Dawn (1979.avi
Format : AVI
Format/Info : Audio Video Interleave
File size : 617 MiB
Duration : 1h 52mn
Overall bit rate mode : Variable
Overall bit rate : 767 Kbps
Writing application : MEncoder 2:1.0~rc2-0ubuntu19+medibuntu1
Writing library : MPlayer
Video #0
ID : 0
Format : MPEG-4 Visual
Format profile : Advanced Simple@L5
Format settings, BVOP : 2
Format settings, QPel : No
Format settings, GMC : No warppoints
Format settings, Matrix : Default (H.263)
Codec ID : XVID
Codec ID/Hint : XviD
Duration : 1h 52mn
Bit rate : 665 Kbps
Width : 592 pixels
Height : 336 pixels
Display aspect ratio : 16:9
Frame rate : 25.000 fps
Color space : YUV
Chroma subsampling : 4:2:0
Bit depth : 8 bits
Scan type : Progressive
Compression mode : Lossy
Bits/(Pixel*Frame) : 0.134
Stream size : 535 MiB (87%)
Writing library : XviD 1.2.1 (UTC 2008-12-04)
Audio #1
ID : 1
Format : MPEG Audio
Format version : Version 1
Format profile : Layer 3
Mode : Joint stereo
Mode extension : MS Stereo
Codec ID : 55
Codec ID/Hint : MP3
Duration : 1h 52mn
Bit rate mode : Variable
Bit rate : 89.2 Kbps
Channel(s) : 2 channels
Sampling rate : 48.0 KHz
Compression mode : Lossy
Stream size : 71.7 MiB (12%)
Alignment : Aligned on interleaves
Interleave, duration : 24 ms (0.60 video frame)
Interleave, preload duration : 475 ms

Zulu Dawn (1979 AFTER

F:\Converted\Zulu Dawn (1979 720p.mkv
General
Unique ID : 205078550083500751690883445149992834572 (0x9A48B12A9084EAA69CC4EE5F56C5560C)
Complete name : F:\Converted\Zulu Dawn (1979 720p.mkv
Format : Matroska
Format version : Version 4 / Version 2
File size : 1.01 GiB
Duration : 1h 52mn
Overall bit rate : 1 282 Kbps
Encoded date : UTC 2016-03-03 08:45:02
Writing application : mkvmerge v8.8.0 ('Wind at my back') 64bit
Writing library : libebml v1.3.3 + libmatroska v1.4.4
DURATION : 01:52:25.728000000
NUMBER_OF_FRAMES : 158103
NUMBER_OF_BYTES : 127403339
_STATISTICS_WRITING_APP : mkvmerge v8.8.0 ('Wind at my back') 64bit
_STATISTICS_WRITING_DATE_UTC : 2016-03-03 08:45:02
_STATISTICS_TAGS : BPS DURATION NUMBER_OF_FRAMES NUMBER_OF_BYTES
Video #1
ID : 1
Format : AVC
Format/Info : Advanced Video Codec
Format profile : High@L3.1
Format settings, CABAC : Yes
Format settings, ReFrames : 4 frames
Codec ID : V_MPEG4/ISO/AVC
Duration : 1h 52mn
Nominal bit rate : 1 135 Kbps
Width : 1 280 pixels
Height : 720 pixels
Display aspect ratio : 16:9
Frame rate mode : Constant
Frame rate : 24.000 fps
Color space : YUV
Chroma subsampling : 4:2:0
Bit depth : 8 bits
Scan type : Progressive
Bits/(Pixel*Frame) : 0.051
Writing library : x264 core 148 r2665kMod a01e339
Encoding settings : cabac=1 / ref=3 / deblock=1:0:0 / analyse=0x3:0x113 / me=hex / subme=7 / psy=1 / fade_compensate=0.00 / psy_rd=1.00:0.00 / mixed_ref=1 / me_range=16 / chroma_me=1 / trellis=1 / 8x8dct=1 / cqm=0 / deadzone=21,11 / fast_pskip=1 / chroma_qp_offset=-2 / threads=7 / lookahead_threads=1 / sliced_threads=0 / nr=0 / decimate=1 / interlaced=0 / bluray_compat=0 / constrained_intra=0 / fgo=0 / bframes=3 / b_pyramid=2 / b_adapt=1 / b_bias=0 / direct=1 / weightb=1 / open_gop=0 / weightp=2 / keyint=250 / keyint_min=25 / scenecut=40 / intra_refresh=0 / rc_lookahead=40 / rc=abr / mbtree=1 / bitrate=1135 / ratetol=1.0 / qcomp=0.60 / qpmin=0 / qpmax=69 / qpstep=4 / ip_ratio=1.40 / aq=1:1.00
Default : Yes
Forced : No
Audio #2
ID : 2
Format : AAC
Format/Info : Advanced Audio Codec
Format profile : HE-AAC / LC
Codec ID : A_AAC
Duration : 1h 52mn
Channel(s) : 2 channels
Channel positions : Front: L R
Sampling rate : 48.0 KHz / 24.0 KHz
Compression mode : Lossy
Default : Yes
Forced : No

THANKS BILL
TRYING TO FIND MY WAY IN MEDIACODER

Return to “Advanced Discussions”

Who is online

Users browsing this forum: Exabot [Bot] and 2 guests