Troubles with Testing MediaCoder

Discuss about generic usage of MediaCoder.

Moderator: HuggiL

Post Reply
TopHatProductions115
Beginner
Beginner
Posts: 3
Joined: Wed Apr 15, 2020 12:45 am
Location: Edge of the Universe
Contact:

Troubles with Testing MediaCoder

Post by TopHatProductions115 » Wed Apr 15, 2020 3:47 am

I need some help with performing my first transcode on this software. When I hit start (to start the transcode), the application instantly returns a completion message and leaves no output file. It appears to happen regardless of what codec I use (be it Software H.264, NVENC, or CUDA). Here are my logs for my most recent transcode attempt:

Code: Select all


MediaCoder
Version 0.8.61 build 6010 (compiled on Apr  5 2020, 10:34:31)

You can freely redistribute this program under its redistribution terms and conditions.
(C)2005-2020 Mediatronic Pty Ltd <info@mediatronic.com.au> All Rights Reserved.

Intel(R) Xeon(R) CPU X5680 @ 3.33GHz (3306Mhz)
CPU Number: 1  CPU Cores: 24
CPU SIMD: MMX SSE SSE2 SSE3 SSSE3 SSE4 SSE4.1 SSE4.2
North Bridge: 0x80863406  South Bridge: 0x80863a16
OpenCL runtime: Yes

# ffmpeg -hwaccel cuda -i "C:\Users\TopHa\Desktop\Go!\Recent\Gogeta Vs. Broly Full Fight DUB 4K.webm" -r 30 -s 1920x1080 -threads 48 -pix_fmt yuv420p -f yuv4mpegpipe -an pipe:8

ffmpeg version 4.2.2 Copyright (c) 2000-2019 the FFmpeg developers
  built with gcc 9.2.1 (GCC) 20200122
  configuration: --enable-gpl --enable-version3 --enable-sdl2 --enable-fontconfig --enable-gnutls --enable-iconv --enable-libass --enable-libdav1d --enable-libbluray --enable-libfreetype --enable-libmp3lame --enable-libopencore-amrnb --enable-libopencore-amrwb --enable-libopenjpeg --enable-libopus --enable-libshine --enable-libsnappy --enable-libsoxr --enable-libtheora --enable-libtwolame --enable-libvpx --enable-libwavpack --enable-libwebp --enable-libx264 --enable-libx265 --enable-libxml2 --enable-libzimg --enable-lzma --enable-zlib --enable-gmp --enable-libvidstab --enable-libvorbis --enable-libvo-amrwbenc --enable-libmysofa --enable-libspeex --enable-libxvid --enable-libaom --enable-libmfx --enable-amf --enable-ffnvcodec --enable-cuvid --enable-d3d11va --enable-nvenc --enable-nvdec --enable-dxva2 --enable-avisynth --enable-libopenmpt
  libavutil      56. 31.100 / 56. 31.100
  libavcodec     58. 54.100 / 58. 54.100
  libavformat    58. 29.100 / 58. 29.100
  libavdevice    58.  8.100 / 58.  8.100
  libavfilter     7. 57.100 /  7. 57.100
  libswscale      5.  5.100 /  5.  5.100
  libswresample   3.  5.100 /  3.  5.100
  libpostproc    55.  5.100 / 55.  5.100
Input #0, matroska,webm, from 'C:\Users\TopHa\Desktop\Go!\Recent\Gogeta Vs. Broly Full Fight DUB 4K.webm':
  Metadata:
    encoder         : Lavf56.25.101
  Duration: 00:08:50.10, start: -0.007000, bitrate: 5134 kb/s
    Stream #0:0(eng): Video: vp9 (Profile 0), yuv420p(tv, bt709/unknown/unknown), 2560x1440, SAR 1:1 DAR 16:9, 30 fps, 30 tbr, 1k tbn, 1k tbc (default)
    Stream #0:1(eng): Audio: opus, 48000 Hz, stereo, fltp (default)
Stream mapping:
  Stream #0:0 -> #0:0 (vp9 (native) -> wrapped_avframe (native))
Press [q] to stop, [?] for help
Output #0, yuv4mpegpipe, to 'pipe:8':
  Metadata:
    encoder         : Lavf58.29.100
    Stream #0:0(eng): Video: wrapped_avframe, yuv420p, 1920x1080 [SAR 1:1 DAR 16:9], q=2-31, 200 kb/s, 30 fps, 30 tbn, 30 tbc (default)
    Metadata:
      encoder         : Lavc58.54.100 wrapped_avframe

# ffmpeg -i concat:"C:\Users\TopHa\Desktop\Go!\Recent\Gogeta Vs. Broly Full Fight DUB 4K.webm" -vn -loglevel quiet -ac 2 -c:a pcm_s16le -f wav pipe:9


# cudaEncode -input=- -cfg=- "-out=C:\Users\TopHa\AppData\Local\Temp\mctemp2c34e7c5ee3a582f.264" -format=NV12 -offload=full -vmeminput


# opusenc.exe --bitrate  64 --cbr --raw  --raw-rate 48000 --raw-bits 16 --raw-chan 2 - "C:\Users\TopHa\AppData\Local\Temp\mctemp2c34e7c5ee3a582f_0.opus"

opusenc.exe: unrecognized option `--cbr'
ffmpeg version 4.2.2 Copyright (c) 2000-2019 the FFmpeg developers
  built with gcc 9.2.1 (GCC) 20200122
  configuration: --enable-gpl --enable-version3 --enable-sdl2 --enable-fontconfig --enable-gnutls --enable-iconv --enable-libass --enable-libdav1d --enable-libbluray --enable-libfreetype --enable-libmp3lame --enable-libopencore-amrnb --enable-libopencore-amrwb --enable-libopenjpeg --enable-libopus --enable-libshine --enable-libsnappy --enable-libsoxr --enable-libtheora --enable-libtwolame --enable-libvpx --enable-libwavpack --enable-libwebp --enable-libx264 --enable-libx265 --enable-libxml2 --enable-libzimg --enable-lzma --enable-zlib --enable-gmp --enable-libvidstab --enable-libvorbis --enable-libvo-amrwbenc --enable-libmysofa --enable-libspeex --enable-libxvid --enable-libaom --enable-libmfx --enable-amf --enable-ffnvcodec --enable-cuvid --enable-d3d11va --enable-nvenc --enable-nvdec --enable-dxva2 --enable-avisynth --enable-libopenmpt
  libavutil      56. 31.100 / 56. 31.100
  libavcodec     58. 54.100 / 58. 54.100
  libavformat    58. 29.100 / 58. 29.100
  libavdevice    58.  8.100 / 58.  8.100
  libavfilter     7. 57.100 /  7. 57.100
  libswscale      5.  5.100 /  5.  5.100
  libswresample   3.  5.100 /  3.  5.100
  libpostproc    55.  5.100 / 55.  5.100
[h264 @ 000001e31715ab00] Format h264 detected only with low score of 1, misdetection possible!
[h264 @ 000001e31715ab00] Could not find codec parameters for stream 0 (Video: h264, none): unspecified size
Consider increasing the value for the 'analyzeduration' and 'probesize' options
Input #0, h264, from 'C:\Users\TopHa\AppData\Local\Temp\mctemp2c34e7c5ee3a582f.264':
  Duration: N/A, bitrate: N/A
    Stream #0:0: Video: h264, none, 25 tbr, 1200k tbn, 50 tbc
Output #0, mp4, to 'C:\Users\TopHa\Desktop\Go!\Recent\Gogeta Vs. Broly Full Fight DUB 4K.mp4':
Output file #0 does not contain any stream

Please let me know what I need to change. I'm testing this application for possible use in an environment where NVENC won't be available. I've already checked to make sure that the NVCUVENC dll's are present and registered under Windows. I don't know what to do next.

stanley
Site Admin
Site Admin
Posts: 4130
Joined: Mon May 15, 2006 7:43 pm
Location: Sydney

Re: Troubles with Testing MediaCoder

Post by stanley » Mon Apr 20, 2020 12:09 pm

Looks like new Opus encoder has no CBR mode. Avoid using that.
When things work together, things work.

TopHatProductions115
Beginner
Beginner
Posts: 3
Joined: Wed Apr 15, 2020 12:45 am
Location: Edge of the Universe
Contact:

Re: Troubles with Testing MediaCoder

Post by TopHatProductions115 » Thu Apr 23, 2020 9:25 am

Thank you for replying. Are there any other settings I should adjust?

TopHatProductions115
Beginner
Beginner
Posts: 3
Joined: Wed Apr 15, 2020 12:45 am
Location: Edge of the Universe
Contact:

Re: Troubles with Testing MediaCoder

Post by TopHatProductions115 » Fri Apr 24, 2020 7:38 am

Sorry for the flurry of posts. After tweaking my settings a bit, I managed to get a tad bit further than before. It processed ~300 of the frames before stopping in the last run:

Code: Select all

MediaCoder
Version 0.8.61 build 6010 (compiled on Apr  5 2020, 10:34:31)

You can freely redistribute this program under its redistribution terms and conditions.
(C)2005-2020 Mediatronic Pty Ltd <info@mediatronic.com.au> All Rights Reserved.

Intel(R) Xeon(R) CPU X5680 @ 3.33GHz (3315Mhz)
CPU Number: 1  CPU Cores: 24
CPU SIMD: MMX SSE SSE2 SSE3 SSSE3 SSE4 SSE4.1 SSE4.2
North Bridge: 0x0  South Bridge: 0x0
OpenCL runtime: Yes

# ffmpeg -hwaccel cuda -i "C:\Users\TopHa\Desktop\Go!\Recent\Encoding_Tests\Enc_Output\MediaCoderHQ\Gogeta Vs. Broly Full Fight DUB 1080p5k_stereo.mp4" -r 30 -threads 48 -pix_fmt yuv420p -f yuv4mpegpipe -an pipe:8

ffmpeg version 4.2.2 Copyright (c) 2000-2019 the FFmpeg developers
  built with gcc 9.2.1 (GCC) 20200122
  configuration: --enable-gpl --enable-version3 --enable-sdl2 --enable-fontconfig --enable-gnutls --enable-iconv --enable-libass --enable-libdav1d --enable-libbluray --enable-libfreetype --enable-libmp3lame --enable-libopencore-amrnb --enable-libopencore-amrwb --enable-libopenjpeg --enable-libopus --enable-libshine --enable-libsnappy --enable-libsoxr --enable-libtheora --enable-libtwolame --enable-libvpx --enable-libwavpack --enable-libwebp --enable-libx264 --enable-libx265 --enable-libxml2 --enable-libzimg --enable-lzma --enable-zlib --enable-gmp --enable-libvidstab --enable-libvorbis --enable-libvo-amrwbenc --enable-libmysofa --enable-libspeex --enable-libxvid --enable-libaom --enable-libmfx --enable-amf --enable-ffnvcodec --enable-cuvid --enable-d3d11va --enable-nvenc --enable-nvdec --enable-dxva2 --enable-avisynth --enable-libopenmpt
  libavutil      56. 31.100 / 56. 31.100
  libavcodec     58. 54.100 / 58. 54.100
  libavformat    58. 29.100 / 58. 29.100
  libavdevice    58.  8.100 / 58.  8.100
  libavfilter     7. 57.100 /  7. 57.100
  libswscale      5.  5.100 /  5.  5.100
  libswresample   3.  5.100 /  3.  5.100
  libpostproc    55.  5.100 / 55.  5.100
Input #0, mov,mp4,m4a,3gp,3g2,mj2, from 'C:\Users\TopHa\Desktop\Go!\Recent\Encoding_Tests\Enc_Output\MediaCoderHQ\Gogeta Vs. Broly Full Fight DUB 1080p5k_stereo.mp4':
  Metadata:
    major_brand     : isom
    minor_version   : 512
    compatible_brands: isomiso2avc1mp41
    encoder         : Lavf58.29.100
  Duration: 00:08:50.22, start: 0.000000, bitrate: 5016 kb/s
    Chapter #0:0: start 0.000000, end 530.219000
    Metadata:
      title           :
    Stream #0:0(und): Video: h264 (High) (avc1 / 0x31637661), yuv420p, 1920x1080 [SAR 1:1 DAR 16:9], 4941 kb/s, 30 fps, 30 tbr, 15360 tbn, 60 tbc (default)
    Metadata:
      handler_name    : VideoHandler
    Stream #0:1(und): Audio: aac (HE-AAC) (mp4a / 0x6134706D), 48000 Hz, stereo, fltp, 72 kb/s (default)
    Metadata:
      handler_name    : Sound Media Handler
    Stream #0:2(eng): Data: bin_data (text / 0x74786574)
    Metadata:
      handler_name    : SubtitleHandler
Stream mapping:
  Stream #0:0 -> #0:0 (h264 (native) -> wrapped_avframe (native))
Press [q] to stop, [?] for help
Output #0, yuv4mpegpipe, to 'pipe:8': 0kB time=-577014:32:22.77 bitrate=  -0.0kbits/s speed=N/A
  Metadata:
    major_brand     : isom
    minor_version   : 512
    compatible_brands: isomiso2avc1mp41
    encoder         : Lavf58.29.100
    Chapter #0:0: start 0.000000, end 530.219000
    Metadata:
      title           :
    Stream #0:0(und): Video: wrapped_avframe, yuv420p, 1920x1080 [SAR 1:1 DAR 16:9], q=2-31, 200 kb/s, 30 fps, 30 tbn, 30 tbc (default)
    Metadata:
      handler_name    : VideoHandler
      encoder         : Lavc58.54.100 wrapped_avframe

# ffmpeg -i concat:"C:\Users\TopHa\Desktop\Go!\Recent\Encoding_Tests\Enc_Output\MediaCoderHQ\Gogeta Vs. Broly Full Fight DUB 1080p5k_stereo.mp4" -vn -loglevel quiet -c:a pcm_s16le -f wav pipe:9


# cudaEncode -input=- -cfg=- "-out=C:\Users\TopHa\AppData\Local\Temp\mctemp11043a88d41f55d8.264" -format=NV12 -offload=full -vmeminput


# neroAacEnc.exe -he -q 0.25 -ignorelength -if - -of "C:\Users\TopHa\AppData\Local\Temp\mctemp11043a88d41f55d8_0.m4a"

*************************************************************
*                                                           *
*  Nero AAC Encoder                                         *
*  Copyright 2009 Nero AG                                   *
*  All Rights Reserved Worldwide                            *
*                                                           *
*  Package build date: Feb 18 2010                          *
*  Package version:    1.5.4.0                              *
*                                                           *
*  See -help for a complete list of available parameters.   *
*                                                           *
*************************************************************


Adaptive cache: 889 MB (300 frames)
frame=  282 fps= 67 q=-0.0 size=  856577kB time=00:00:09.40 bitrate=746497.5kbits/s dup=1 drop=0 speed=2.22x
av_interleaved_write_frame(): Invalid argument
Error writing trailer of pipe:8: Invalid argument
frame=  301 fps= 36 q=-0.0 Lsize=  912308kB time=00:00:10.03 bitrate=744879.7kbits/s dup=1 drop=0 speed=1.22x
video:158kB audio:0kB subtitle:0kB other streams:0kB global headers:0kB muxing overhead: 578942.000000%
Conversion failed!

# ffmpeg -hwaccel cuda -i "C:\Users\TopHa\Desktop\Go!\Recent\Encoding_Tests\Enc_Output\MediaCoderHQ\Gogeta Vs. Broly Full Fight DUB 1080p5k_stereo.mp4" -r 30 -threads 48 -pix_fmt yuv420p -f yuv4mpegpipe -an pipe:8

ffmpeg version 4.2.2 Copyright (c) 2000-2019 the FFmpeg developers
  built with gcc 9.2.1 (GCC) 20200122
  configuration: --enable-gpl --enable-version3 --enable-sdl2 --enable-fontconfig --enable-gnutls --enable-iconv --enable-libass --enable-libdav1d --enable-libbluray --enable-libfreetype --enable-libmp3lame --enable-libopencore-amrnb --enable-libopencore-amrwb --enable-libopenjpeg --enable-libopus --enable-libshine --enable-libsnappy --enable-libsoxr --enable-libtheora --enable-libtwolame --enable-libvpx --enable-libwavpack --enable-libwebp --enable-libx264 --enable-libx265 --enable-libxml2 --enable-libzimg --enable-lzma --enable-zlib --enable-gmp --enable-libvidstab --enable-libvorbis --enable-libvo-amrwbenc --enable-libmysofa --enable-libspeex --enable-libxvid --enable-libaom --enable-libmfx --enable-amf --enable-ffnvcodec --enable-cuvid --enable-d3d11va --enable-nvenc --enable-nvdec --enable-dxva2 --enable-avisynth --enable-libopenmpt
  libavutil      56. 31.100 / 56. 31.100
  libavcodec     58. 54.100 / 58. 54.100
  libavformat    58. 29.100 / 58. 29.100
  libavdevice    58.  8.100 / 58.  8.100
  libavfilter     7. 57.100 /  7. 57.100
  libswscale      5.  5.100 /  5.  5.100
  libswresample   3.  5.100 /  3.  5.100
  libpostproc    55.  5.100 / 55.  5.100
Input #0, mov,mp4,m4a,3gp,3g2,mj2, from 'C:\Users\TopHa\Desktop\Go!\Recent\Encoding_Tests\Enc_Output\MediaCoderHQ\Gogeta Vs. Broly Full Fight DUB 1080p5k_stereo.mp4':
  Metadata:
    major_brand     : isom
    minor_version   : 512
    compatible_brands: isomiso2avc1mp41
    encoder         : Lavf58.29.100
  Duration: 00:08:50.22, start: 0.000000, bitrate: 5016 kb/s
    Chapter #0:0: start 0.000000, end 530.219000
    Metadata:
      title           :
    Stream #0:0(und): Video: h264 (High) (avc1 / 0x31637661), yuv420p, 1920x1080 [SAR 1:1 DAR 16:9], 4941 kb/s, 30 fps, 30 tbr, 15360 tbn, 60 tbc (default)
    Metadata:
      handler_name    : VideoHandler
    Stream #0:1(und): Audio: aac (HE-AAC) (mp4a / 0x6134706D), 48000 Hz, stereo, fltp, 72 kb/s (default)
    Metadata:
      handler_name    : Sound Media Handler
    Stream #0:2(eng): Data: bin_data (text / 0x74786574)
    Metadata:
      handler_name    : SubtitleHandler
Stream mapping:
  Stream #0:0 -> #0:0 (h264 (native) -> wrapped_avframe (native))
Press [q] to stop, [?] for help
Output #0, yuv4mpegpipe, to 'pipe:8':
  Metadata:
    major_brand     : isom
    minor_version   : 512
    compatible_brands: isomiso2avc1mp41
    encoder         : Lavf58.29.100
    Chapter #0:0: start 0.000000, end 530.219000
    Metadata:
      title           :
    Stream #0:0(und): Video: wrapped_avframe, yuv420p, 1920x1080 [SAR 1:1 DAR 16:9], q=2-31, 200 kb/s, 30 fps, 30 tbn, 30 tbc (default)
    Metadata:
      handler_name    : VideoHandler
      encoder         : Lavc58.54.100 wrapped_avframe

# ffmpeg -i concat:"C:\Users\TopHa\Desktop\Go!\Recent\Encoding_Tests\Enc_Output\MediaCoderHQ\Gogeta Vs. Broly Full Fight DUB 1080p5k_stereo.mp4" -vn -loglevel quiet -c:a pcm_s16le -f wav pipe:9


# cudaEncode -input=- -cfg=- "-out=C:\Users\TopHa\AppData\Local\Temp\mctemp11043a88d41f55d8.264" -format=NV12 -offload=full -vmeminput


# neroAacEnc.exe -he -q 0.25 -ignorelength -if - -of "C:\Users\TopHa\AppData\Local\Temp\mctemp11043a88d41f55d8_0.m4a"

*************************************************************
*                                                           *
*  Nero AAC Encoder                                         *
*  Copyright 2009 Nero AG                                   *
*  All Rights Reserved Worldwide                            *
*                                                           *
*  Package build date: Feb 18 2010                          *
*  Package version:    1.5.4.0                              *
*                                                           *
*  See -help for a complete list of available parameters.   *
*                                                           *
*************************************************************


Adaptive cache: 889 MB (300 frames)
av_interleaved_write_frame(): Invalid argumente=00:00:00.10 bitrate=746502.4kbits/s dup=1 drop=0 speed=0.136x
Error writing trailer of pipe:8: Invalid argument
frame=   71 fps= 57 q=-0.0 Lsize=  213681kB time=00:00:02.36 bitrate=739638.7kbits/s dup=1 drop=0 speed=1.91x
video:37kB audio:0kB subtitle:0kB other streams:0kB global headers:0kB muxing overhead: 574868.000000%

Conversion failed!

# ffmpeg -hwaccel cuda -i "C:\Users\TopHa\Desktop\Go!\Recent\Encoding_Tests\Gogeta Vs. Broly Full Fight DUB 4K.webm" -r 30 -s 1920x1080 -threads 48 -pix_fmt yuv420p -f yuv4mpegpipe -an pipe:8

ffmpeg version 4.2.2 Copyright (c) 2000-2019 the FFmpeg developers
  built with gcc 9.2.1 (GCC) 20200122
  configuration: --enable-gpl --enable-version3 --enable-sdl2 --enable-fontconfig --enable-gnutls --enable-iconv --enable-libass --enable-libdav1d --enable-libbluray --enable-libfreetype --enable-libmp3lame --enable-libopencore-amrnb --enable-libopencore-amrwb --enable-libopenjpeg --enable-libopus --enable-libshine --enable-libsnappy --enable-libsoxr --enable-libtheora --enable-libtwolame --enable-libvpx --enable-libwavpack --enable-libwebp --enable-libx264 --enable-libx265 --enable-libxml2 --enable-libzimg --enable-lzma --enable-zlib --enable-gmp --enable-libvidstab --enable-libvorbis --enable-libvo-amrwbenc --enable-libmysofa --enable-libspeex --enable-libxvid --enable-libaom --enable-libmfx --enable-amf --enable-ffnvcodec --enable-cuvid --enable-d3d11va --enable-nvenc --enable-nvdec --enable-dxva2 --enable-avisynth --enable-libopenmpt
  libavutil      56. 31.100 / 56. 31.100
  libavcodec     58. 54.100 / 58. 54.100
  libavformat    58. 29.100 / 58. 29.100
  libavdevice    58.  8.100 / 58.  8.100
  libavfilter     7. 57.100 /  7. 57.100
  libswscale      5.  5.100 /  5.  5.100
  libswresample   3.  5.100 /  3.  5.100
  libpostproc    55.  5.100 / 55.  5.100
Input #0, matroska,webm, from 'C:\Users\TopHa\Desktop\Go!\Recent\Encoding_Tests\Gogeta Vs. Broly Full Fight DUB 4K.webm':
  Metadata:
    encoder         : Lavf56.25.101
  Duration: 00:08:50.10, start: -0.007000, bitrate: 5134 kb/s
    Stream #0:0(eng): Video: vp9 (Profile 0), yuv420p(tv, bt709/unknown/unknown), 2560x1440, SAR 1:1 DAR 16:9, 30 fps, 30 tbr, 1k tbn, 1k tbc (default)
    Stream #0:1(eng): Audio: opus, 48000 Hz, stereo, fltp (default)
Stream mapping:
  Stream #0:0 -> #0:0 (vp9 (native) -> wrapped_avframe (native))
Press [q] to stop, [?] for help
Output #0, yuv4mpegpipe, to 'pipe:8':
  Metadata:
    encoder         : Lavf58.29.100
    Stream #0:0(eng): Video: wrapped_avframe, yuv420p, 1920x1080 [SAR 1:1 DAR 16:9], q=2-31, 200 kb/s, 30 fps, 30 tbn, 30 tbc (default)
    Metadata:
      encoder         : Lavc58.54.100 wrapped_avframe

# ffmpeg -i concat:"C:\Users\TopHa\Desktop\Go!\Recent\Encoding_Tests\Gogeta Vs. Broly Full Fight DUB 4K.webm" -vn -loglevel quiet -ac 2 -c:a pcm_s16le -f wav pipe:9


# cudaEncode -input=- -cfg=- "-out=C:\Users\TopHa\AppData\Local\Temp\mctemp1104896405777ec7.264" -format=NV12 -offload=full -vmeminput


# opusenc.exe --bitrate  64 --vbr --raw  --raw-rate 48000 --raw-bits 16 --raw-chan 2 - "C:\Users\TopHa\AppData\Local\Temp\mctemp1104896405777ec7_0.opus"

Encoding using libopus 1.1.x-git (audio)
-----------------------------------------------------
   Input: 48kHz 2 channels
  Output: 2 channels (2 coupled)
          20ms packets, 64kbit/sec VBR
 Preskip: 312


Adaptive cache: 889 MB (300 frames)
Encoding complete                                                                      ed=0.07x
-----------------------------------------------------
       Encoded: 4.28 seconds
       Runtime: 1 seconds
                (4.28x realtime)
         Wrote: 34449 bytes, 214 packets, 7 pages
       Bitrate: 62.1645kbit/s (without overhead)
 Instant rates: 48.8kbit/s to 108.8kbit/s
                (122 to 272 bytes per packet)
      Overhead: 3.46% (container+metadata)

av_interleaved_write_frame(): Invalid argument
Error writing trailer of pipe:8: Invalid argument
frame=   23 fps= 16 q=-0.0 Lsize=   67881kB time=00:00:00.76 bitrate=725324.9kbits/s speed=0.523x
video:12kB audio:0kB subtitle:0kB other streams:0kB global headers:0kB muxing overhead: 563741.125000%
Conversion failed!

# ffmpeg -hwaccel cuda -i "C:\Users\TopHa\Desktop\Go!\Recent\Encoding_Tests\Gogeta Vs. Broly Full Fight DUB 4K.webm" -r 30 -s 1920x1080 -threads 48 -pix_fmt yuv420p -f yuv4mpegpipe -an pipe:8

ffmpeg version 4.2.2 Copyright (c) 2000-2019 the FFmpeg developers
  built with gcc 9.2.1 (GCC) 20200122
  configuration: --enable-gpl --enable-version3 --enable-sdl2 --enable-fontconfig --enable-gnutls --enable-iconv --enable-libass --enable-libdav1d --enable-libbluray --enable-libfreetype --enable-libmp3lame --enable-libopencore-amrnb --enable-libopencore-amrwb --enable-libopenjpeg --enable-libopus --enable-libshine --enable-libsnappy --enable-libsoxr --enable-libtheora --enable-libtwolame --enable-libvpx --enable-libwavpack --enable-libwebp --enable-libx264 --enable-libx265 --enable-libxml2 --enable-libzimg --enable-lzma --enable-zlib --enable-gmp --enable-libvidstab --enable-libvorbis --enable-libvo-amrwbenc --enable-libmysofa --enable-libspeex --enable-libxvid --enable-libaom --enable-libmfx --enable-amf --enable-ffnvcodec --enable-cuvid --enable-d3d11va --enable-nvenc --enable-nvdec --enable-dxva2 --enable-avisynth --enable-libopenmpt
  libavutil      56. 31.100 / 56. 31.100
  libavcodec     58. 54.100 / 58. 54.100
  libavformat    58. 29.100 / 58. 29.100
  libavdevice    58.  8.100 / 58.  8.100
  libavfilter     7. 57.100 /  7. 57.100
  libswscale      5.  5.100 /  5.  5.100
  libswresample   3.  5.100 /  3.  5.100
  libpostproc    55.  5.100 / 55.  5.100
Input #0, matroska,webm, from 'C:\Users\TopHa\Desktop\Go!\Recent\Encoding_Tests\Gogeta Vs. Broly Full Fight DUB 4K.webm':
  Metadata:
    encoder         : Lavf56.25.101
  Duration: 00:08:50.10, start: -0.007000, bitrate: 5134 kb/s
    Stream #0:0(eng): Video: vp9 (Profile 0), yuv420p(tv, bt709/unknown/unknown), 2560x1440, SAR 1:1 DAR 16:9, 30 fps, 30 tbr, 1k tbn, 1k tbc (default)
    Stream #0:1(eng): Audio: opus, 48000 Hz, stereo, fltp (default)
Stream mapping:
  Stream #0:0 -> #0:0 (vp9 (native) -> wrapped_avframe (native))
Press [q] to stop, [?] for help
Output #0, yuv4mpegpipe, to 'pipe:8':
  Metadata:
    encoder         : Lavf58.29.100
    Stream #0:0(eng): Video: wrapped_avframe, yuv420p, 1920x1080 [SAR 1:1 DAR 16:9], q=2-31, 200 kb/s, 30 fps, 30 tbn, 30 tbc (default)
    Metadata:
      encoder         : Lavc58.54.100 wrapped_avframe

# ffmpeg -i concat:"C:\Users\TopHa\Desktop\Go!\Recent\Encoding_Tests\Gogeta Vs. Broly Full Fight DUB 4K.webm" -vn -loglevel quiet -ac 2 -c:a pcm_s16le -f wav pipe:9


# cudaEncode -input=- -cfg=- "-out=C:\Users\TopHa\AppData\Local\Temp\mctemp1104896405777ec7.264" -format=NV12 -offload=full -vmeminput


# flac.exe -o -s -f --force-raw-format --endian=little --channels=2 --bps=16 --sample-rate=48000 --sign=signed --compression-level-4 - -o "C:\Users\TopHa\AppData\Local\Temp\mctemp1104896405777ec7_0.flac"


flac 1.3.0, Copyright (C) 2000-2009, 2011-2013  Josh Coalson & Xiph.Org Foundation
flac comes with ABSOLUTELY NO WARRANTY.  This is free software, and you are
welcome to redistribute it under certain conditions.  Type `flac' for details.

(No runtime statistics possible; please wait for encoding to finish...)

Adaptive cache: 889 MB (300 frames)
av_interleaved_write_frame(): Invalid argumente=00:00:00.06 bitrate=746500.9kbits/s speed=0.054x
Error writing trailer of pipe:8: Invalid argument
frame=    9 fps=5.1 q=-0.0 Lsize=   25356kB time=00:00:00.30 bitrate=692390.7kbits/s speed=0.171x
video:5kB audio:0kB subtitle:0kB other streams:0kB global headers:0kB muxing overhead: 538139.062500%
Conversion failed!

# ffmpeg -hwaccel cuda -i "C:\Users\TopHa\Desktop\Go!\Recent\Encoding_Tests\Gogeta Vs. Broly Full Fight DUB 4K.webm" -r 30 -s 1920x1080 -threads 48 -pix_fmt yuv420p -f yuv4mpegpipe -an pipe:8

ffmpeg version 4.2.2 Copyright (c) 2000-2019 the FFmpeg developers
  built with gcc 9.2.1 (GCC) 20200122
  configuration: --enable-gpl --enable-version3 --enable-sdl2 --enable-fontconfig --enable-gnutls --enable-iconv --enable-libass --enable-libdav1d --enable-libbluray --enable-libfreetype --enable-libmp3lame --enable-libopencore-amrnb --enable-libopencore-amrwb --enable-libopenjpeg --enable-libopus --enable-libshine --enable-libsnappy --enable-libsoxr --enable-libtheora --enable-libtwolame --enable-libvpx --enable-libwavpack --enable-libwebp --enable-libx264 --enable-libx265 --enable-libxml2 --enable-libzimg --enable-lzma --enable-zlib --enable-gmp --enable-libvidstab --enable-libvorbis --enable-libvo-amrwbenc --enable-libmysofa --enable-libspeex --enable-libxvid --enable-libaom --enable-libmfx --enable-amf --enable-ffnvcodec --enable-cuvid --enable-d3d11va --enable-nvenc --enable-nvdec --enable-dxva2 --enable-avisynth --enable-libopenmpt
  libavutil      56. 31.100 / 56. 31.100
  libavcodec     58. 54.100 / 58. 54.100
  libavformat    58. 29.100 / 58. 29.100
  libavdevice    58.  8.100 / 58.  8.100
  libavfilter     7. 57.100 /  7. 57.100
  libswscale      5.  5.100 /  5.  5.100
  libswresample   3.  5.100 /  3.  5.100
  libpostproc    55.  5.100 / 55.  5.100
Input #0, matroska,webm, from 'C:\Users\TopHa\Desktop\Go!\Recent\Encoding_Tests\Gogeta Vs. Broly Full Fight DUB 4K.webm':
  Metadata:
    encoder         : Lavf56.25.101
  Duration: 00:08:50.10, start: -0.007000, bitrate: 5134 kb/s
    Stream #0:0(eng): Video: vp9 (Profile 0), yuv420p(tv, bt709/unknown/unknown), 2560x1440, SAR 1:1 DAR 16:9, 30 fps, 30 tbr, 1k tbn, 1k tbc (default)
    Stream #0:1(eng): Audio: opus, 48000 Hz, stereo, fltp (default)
Stream mapping:
  Stream #0:0 -> #0:0 (vp9 (native) -> wrapped_avframe (native))
Press [q] to stop, [?] for help
Output #0, yuv4mpegpipe, to 'pipe:8':
  Metadata:
    encoder         : Lavf58.29.100
    Stream #0:0(eng): Video: wrapped_avframe, yuv420p, 1920x1080 [SAR 1:1 DAR 16:9], q=2-31, 200 kb/s, 30 fps, 30 tbn, 30 tbc (default)
    Metadata:
      encoder         : Lavc58.54.100 wrapped_avframe

# ffmpeg -i concat:"C:\Users\TopHa\Desktop\Go!\Recent\Encoding_Tests\Gogeta Vs. Broly Full Fight DUB 4K.webm" -vn -loglevel quiet -ac 2 -c:a pcm_s16le -f wav pipe:9


# cudaEncode -input=- -cfg=- "-out=C:\Users\TopHa\AppData\Local\Temp\mctemp1104896405777ec7.264" -format=NV12 -offload=full -vmeminput


# neroAacEnc.exe -hev2 -q 0.5 -ignorelength -if - -of "C:\Users\TopHa\AppData\Local\Temp\mctemp1104896405777ec7_0.m4a"

*************************************************************
*                                                           *
*  Nero AAC Encoder                                         *
*  Copyright 2009 Nero AG                                   *
*  All Rights Reserved Worldwide                            *
*                                                           *
*  Package build date: Feb 18 2010                          *
*  Package version:    1.5.4.0                              *
*                                                           *
*  See -help for a complete list of available parameters.   *
*                                                           *
*************************************************************


Adaptive cache: 889 MB (300 frames)
av_interleaved_write_frame(): Invalid argumente=00:00:00.06 bitrate=746500.9kbits/s speed=0.089x
Error writing trailer of pipe:8: Invalid argument
frame=   31 fps= 25 q=-0.0 Lsize=   92181kB time=00:00:01.03 bitrate=730789.3kbits/s speed=0.818x
video:16kB audio:0kB subtitle:0kB other streams:0kB global headers:0kB muxing overhead: 567988.500000%

Conversion failed!

# ffmpeg -hwaccel cuda -i "C:\Users\TopHa\Desktop\Go!\Recent\Encoding_Tests\Gogeta Vs. Broly Full Fight DUB 4K.webm" -r 30 -s 1920x1080 -threads 48 -pix_fmt yuv420p -f yuv4mpegpipe -an pipe:8

ffmpeg version 4.2.2 Copyright (c) 2000-2019 the FFmpeg developers
  built with gcc 9.2.1 (GCC) 20200122
  configuration: --enable-gpl --enable-version3 --enable-sdl2 --enable-fontconfig --enable-gnutls --enable-iconv --enable-libass --enable-libdav1d --enable-libbluray --enable-libfreetype --enable-libmp3lame --enable-libopencore-amrnb --enable-libopencore-amrwb --enable-libopenjpeg --enable-libopus --enable-libshine --enable-libsnappy --enable-libsoxr --enable-libtheora --enable-libtwolame --enable-libvpx --enable-libwavpack --enable-libwebp --enable-libx264 --enable-libx265 --enable-libxml2 --enable-libzimg --enable-lzma --enable-zlib --enable-gmp --enable-libvidstab --enable-libvorbis --enable-libvo-amrwbenc --enable-libmysofa --enable-libspeex --enable-libxvid --enable-libaom --enable-libmfx --enable-amf --enable-ffnvcodec --enable-cuvid --enable-d3d11va --enable-nvenc --enable-nvdec --enable-dxva2 --enable-avisynth --enable-libopenmpt
  libavutil      56. 31.100 / 56. 31.100
  libavcodec     58. 54.100 / 58. 54.100
  libavformat    58. 29.100 / 58. 29.100
  libavdevice    58.  8.100 / 58.  8.100
  libavfilter     7. 57.100 /  7. 57.100
  libswscale      5.  5.100 /  5.  5.100
  libswresample   3.  5.100 /  3.  5.100
  libpostproc    55.  5.100 / 55.  5.100
Input #0, matroska,webm, from 'C:\Users\TopHa\Desktop\Go!\Recent\Encoding_Tests\Gogeta Vs. Broly Full Fight DUB 4K.webm':
  Metadata:
    encoder         : Lavf56.25.101
  Duration: 00:08:50.10, start: -0.007000, bitrate: 5134 kb/s
    Stream #0:0(eng): Video: vp9 (Profile 0), yuv420p(tv, bt709/unknown/unknown), 2560x1440, SAR 1:1 DAR 16:9, 30 fps, 30 tbr, 1k tbn, 1k tbc (default)
    Stream #0:1(eng): Audio: opus, 48000 Hz, stereo, fltp (default)
Stream mapping:
  Stream #0:0 -> #0:0 (vp9 (native) -> wrapped_avframe (native))
Press [q] to stop, [?] for help
Output #0, yuv4mpegpipe, to 'pipe:8':
  Metadata:
    encoder         : Lavf58.29.100
    Stream #0:0(eng): Video: wrapped_avframe, yuv420p, 1920x1080 [SAR 1:1 DAR 16:9], q=2-31, 200 kb/s, 30 fps, 30 tbn, 30 tbc (default)
    Metadata:
      encoder         : Lavc58.54.100 wrapped_avframe

# ffmpeg -i concat:"C:\Users\TopHa\Desktop\Go!\Recent\Encoding_Tests\Gogeta Vs. Broly Full Fight DUB 4K.webm" -vn -loglevel quiet -ac 2 -c:a pcm_s16le -f wav pipe:9


# cudaEncode -input=- -cfg=- "-out=C:\Users\TopHa\AppData\Local\Temp\mctemp1104896405777ec7.264" -format=NV12 -offload=full -vmeminput


# neroAacEnc.exe -hev2 -q 0.5 -ignorelength -if - -of "C:\Users\TopHa\AppData\Local\Temp\mctemp1104896405777ec7_0.m4a"

*************************************************************
*                                                           *
*  Nero AAC Encoder                                         *
*  Copyright 2009 Nero AG                                   *
*  All Rights Reserved Worldwide                            *
*                                                           *
*  Package build date: Feb 18 2010                          *
*  Package version:    1.5.4.0                              *
*                                                           *
*  See -help for a complete list of available parameters.   *
*                                                           *
*************************************************************


Adaptive cache: 889 MB (300 frames)
Processed 8 seconds...-0.0 size=    6075kB time=00:00:00.06 bitrate=746500.9kbits/s speed=0.0868x
av_interleaved_write_frame(): Invalid argument
Error writing trailer of pipe:8: Invalid argument
frame=   26 fps= 20 q=-0.0 Lsize=   76994kB time=00:00:00.86 bitrate=727767.9kbits/s speed=0.676x
video:14kB audio:0kB subtitle:0kB other streams:0kB global headers:0kB muxing overhead: 565640.187500%
Conversion failed!

# ffmpeg -hwaccel cuda -i "C:\Users\TopHa\Desktop\Go!\Recent\Encoding_Tests\Gogeta Vs. Broly Full Fight DUB 4K.webm" -r 30 -s 1920x1080 -threads 48 -pix_fmt yuv420p -f yuv4mpegpipe -an pipe:8

ffmpeg version 4.2.2 Copyright (c) 2000-2019 the FFmpeg developers
  built with gcc 9.2.1 (GCC) 20200122
  configuration: --enable-gpl --enable-version3 --enable-sdl2 --enable-fontconfig --enable-gnutls --enable-iconv --enable-libass --enable-libdav1d --enable-libbluray --enable-libfreetype --enable-libmp3lame --enable-libopencore-amrnb --enable-libopencore-amrwb --enable-libopenjpeg --enable-libopus --enable-libshine --enable-libsnappy --enable-libsoxr --enable-libtheora --enable-libtwolame --enable-libvpx --enable-libwavpack --enable-libwebp --enable-libx264 --enable-libx265 --enable-libxml2 --enable-libzimg --enable-lzma --enable-zlib --enable-gmp --enable-libvidstab --enable-libvorbis --enable-libvo-amrwbenc --enable-libmysofa --enable-libspeex --enable-libxvid --enable-libaom --enable-libmfx --enable-amf --enable-ffnvcodec --enable-cuvid --enable-d3d11va --enable-nvenc --enable-nvdec --enable-dxva2 --enable-avisynth --enable-libopenmpt
  libavutil      56. 31.100 / 56. 31.100
  libavcodec     58. 54.100 / 58. 54.100
  libavformat    58. 29.100 / 58. 29.100
  libavdevice    58.  8.100 / 58.  8.100
  libavfilter     7. 57.100 /  7. 57.100
  libswscale      5.  5.100 /  5.  5.100
  libswresample   3.  5.100 /  3.  5.100
  libpostproc    55.  5.100 / 55.  5.100
Input #0, matroska,webm, from 'C:\Users\TopHa\Desktop\Go!\Recent\Encoding_Tests\Gogeta Vs. Broly Full Fight DUB 4K.webm':
  Metadata:
    encoder         : Lavf56.25.101
  Duration: 00:08:50.10, start: -0.007000, bitrate: 5134 kb/s
    Stream #0:0(eng): Video: vp9 (Profile 0), yuv420p(tv, bt709/unknown/unknown), 2560x1440, SAR 1:1 DAR 16:9, 30 fps, 30 tbr, 1k tbn, 1k tbc (default)
    Stream #0:1(eng): Audio: opus, 48000 Hz, stereo, fltp (default)
Stream mapping:
  Stream #0:0 -> #0:0 (vp9 (native) -> wrapped_avframe (native))
Press [q] to stop, [?] for help
Output #0, yuv4mpegpipe, to 'pipe:8':
  Metadata:
    encoder         : Lavf58.29.100
    Stream #0:0(eng): Video: wrapped_avframe, yuv420p, 1920x1080 [SAR 1:1 DAR 16:9], q=2-31, 200 kb/s, 30 fps, 30 tbn, 30 tbc (default)
    Metadata:
      encoder         : Lavc58.54.100 wrapped_avframe

# ffmpeg -i concat:"C:\Users\TopHa\Desktop\Go!\Recent\Encoding_Tests\Gogeta Vs. Broly Full Fight DUB 4K.webm" -vn -loglevel quiet -ac 2 -c:a pcm_s16le -f wav pipe:9


# cudaEncode -input=- -cfg=- "-out=C:\Users\TopHa\AppData\Local\Temp\mctemp1104896405777ec7.264" -format=NV12 -offload=full -vmeminput


# neroAacEnc.exe -hev2 -q 0.5 -ignorelength -if - -of "C:\Users\TopHa\AppData\Local\Temp\mctemp1104896405777ec7_0.m4a"

*************************************************************
*                                                           *
*  Nero AAC Encoder                                         *
*  Copyright 2009 Nero AG                                   *
*  All Rights Reserved Worldwide                            *
*                                                           *
*  Package build date: Feb 18 2010                          *
*  Package version:    1.5.4.0                              *
*                                                           *
*  See -help for a complete list of available parameters.   *
*                                                           *
*************************************************************


Adaptive cache: 889 MB (300 frames)
av_interleaved_write_frame(): Invalid argumente=00:00:09.23 bitrate=746497.5kbits/s speed=1.92x
Error writing trailer of pipe:8: Invalid argument
frame=  308 fps=9.8 q=-0.0 Lsize=  933570kB time=00:00:10.26 bitrate=744916.4kbits/s speed=0.328x
video:161kB audio:0kB subtitle:0kB other streams:0kB global headers:0kB muxing overhead: 578970.562500%
Conversion failed!ds...
Processed 37 seconds...

Post Reply